Большой летний SALEБольшой летний SALE
+7 (495) 755-55-60
+7 (800) 555-51-52
бесплатно по России
Ваш личный
эксперт
в электронике
Мы Вам перезвоним
Регистрация

Форум » Обсуждение и вопросы по технике » Телевизоры и панели » Вопросы о товаре LED телевизор Philips 32PFL7406H/60

Вопросы о товаре LED телевизор Philips 32PFL7406H/60

LED телевизор Philips 32PFL7406H/60

Здравствуйте, хотела бы у вас спросить. В отзывах все пишут о замечательном качестве изображения. Дело в том,что я приобрела этот телевизор, но у меня на нём не очень чёткое изображение, подходишь близко и прям видно множество квадратиков (нечёткость), все настройки изображени вроде бы в порядке. Может ли это быть связанно с неполадками с антенной? Или проблема в самом телевизоре?

не будет никогда простая антенна на 1080p показывать хорошо. смотрите BD носители и всё будет гуд :)

В день сам выключается по 3-4 раза. В чем причина

Попробуйтеобновить прошивку:

http://www.p4c.philips.com/cgi-bin/dcbint/cpindex.pl?scy=RU&slg=RUS&sct=7000_SERIES_FLAT_TV_SE&cat=TELEVISIONS_CA­&grp=SOUND_AND_VISION_GR&session=20120118184346_109.167.133.154&ctn=32PFL7406H/60&list=aa12_list_partial.html&mid=Link_Software&hlt=Link_Software

Очень интересен результат.

подключил ноут к телевизору через HDMI, изображение передаётся, а звук нет, в чём причина?

ну тык hdmi - видео токма передаёт в таком случае, у вас ведь звуковуха с аудюхой не спаренные. теперь нужно отдельным кабелем аудио на телек подавать....

Спасибо

качество показа многих программ ухудшилось (дрожание, лесенка и т.п.) при смене прошивки. Как откатиться назад? Нужна прошивка 093.

а старая прошивка осталась где?

Как подключиться к проводному интернету???

Отключается самопроизвольно через часа 2 просмотра стабильно каждый день. Кто знает в чем проблема?

в описании сказано, что .mkv - поддерживаемый формат. но не работает. с usb. в чем проблемма?
mediainfo -
General
Unique ID                                : 197542095173663765064786190243167716944 (0x949D39404987AF5F8B32E60EF603C650)
Complete name                            : /Users/evache/Downloads/Once Upon a Time in America (1984) 1080p BD-Remux.Eng(14).Rus.mkv
Format                                   : Matroska
Format version                           : Version 2
File size                                : 41.2 GiB
Duration                                 : 3h 49mn
Overall bit rate                         : 25.7 Mbps
Encoded date                             : UTC 2011-03-08 18:01:46
Writing application                      : mkvmerge v4.4.0 ('Die Wiederkehr') сборка от Oct 31 2010 21:52:48
Writing library                          : libebml v1.0.0 + libmatroska v1.0.0

Video
ID                                       : 1
Format                                   : AVC
Format/Info                              : Advanced Video Codec
Format profile                           : High@L4.1
Format settings, CABAC                   : Yes
Format settings, ReFrames                : 2 frames
Format settings, GOP                     : M=1, N=10
Codec ID                                 : V_MPEG4/ISO/AVC
Duration                                 : 3h 49mn
Bit rate mode                            : Variable
Bit rate                                 : 16.3 Mbps
Width                                    : 1 920 pixels
Height                                   : 1 080 pixels
Display aspect ratio                     : 16:9
Frame rate                               : 23.976 fps
Color space                              : YUV
Chroma subsampling                       : 4:2:0
Bit depth                                : 8 bits
Scan type                                : Progressive
Bits/(Pixel*Frame)                       : 0.328
Stream size                              : 26.1 GiB (63%)

Audio #1
ID                                       : 2
Format                                   : AC-3
Format/Info                              : Audio Coding 3
Mode extension                           : CM (complete main)
Codec ID                                 : A_AC3
Duration                                 : 3h 49mn
Bit rate mode                            : Constant
Bit rate                                 : 448 Kbps
Channel(s)                               : 6 channels
Channel positions                        : Front: L C R, Side: L R, LFE
Sampling rate                            : 48.0 KHz
Bit depth                                : 16 bits
Compression mode                         : Lossy
Stream size                              : 735 MiB (2%)
Title                                    : |Многоголосый закадровый, НТВ+|
Language                                 : Russian

Audio #2
ID                                       : 3
Format                                   : AC-3
Format/Info                              : Audio Coding 3
Mode extension                           : CM (complete main)
Codec ID                                 : A_AC3
Duration                                 : 3h 49mn
Bit rate mode                            : Constant
Bit rate                                 : 192 Kbps
Channel(s)                               : 2 channels
Channel positions                        : Front: L R
Sampling rate                            : 48.0 KHz
Bit depth                                : 16 bits
Compression mode                         : Lossy
Stream size                              : 315 MiB (1%)
Title                                    : |Одноголосый закадровый, О.Борисов|
Language                                 : Russian

Audio #3
ID                                       : 4
Format                                   : AC-3
Format/Info                              : Audio Coding 3
Mode extension                           : CM (complete main)
Codec ID                                 : A_AC3
Duration                                 : 3h 49mn
Bit rate mode                            : Constant
Bit rate                                 : 192 Kbps
Channel(s)                               : 2 channels
Channel positions                        : Front: L R
Sampling rate                            : 48.0 KHz
Bit depth                                : 16 bits
Compression mode                         : Lossy
Stream size                              : 315 MiB (1%)
Title                                    : |Двухголосый закадровый, Конкин и тётя|
Language                                 : Russian

Audio #4
ID                                       : 5
Format                                   : DTS
Format/Info                              : Digital Theater Systems
Codec ID                                 : A_DTS
Duration                                 : 3h 49mn
Bit rate mode                            : Constant
Bit rate                                 : 1 510 Kbps
Channel(s)                               : 6 channels
Channel positions                        : Front: L C R, Side: L R, LFE
Sampling rate                            : 48.0 KHz
Bit depth                                : 24 bits
Compression mode                         : Lossy
Stream size                              : 2.42 GiB (6%)
Title                                    : |Многоголосый закадровый, Позитив-Мультимедиа|
Language                                 : Russian

Audio #5
ID                                       : 6
Format                                   : AC-3
Format/Info                              : Audio Coding 3
Mode extension                           : CM (complete main)
Codec ID                                 : A_AC3
Duration                                 : 3h 49mn
Bit rate mode                            : Constant
Bit rate                                 : 448 Kbps
Channel(s)                               : 6 channels
Channel positions                        : Front: L C R, Side: L R, LFE
Sampling rate                            : 48.0 KHz
Bit depth                                : 16 bits
Compression mode                         : Lossy
Stream size                              : 735 MiB (2%)
Title                                    : |Многоголосый закадровый, Карусель/Киномания|
Language                                 : Russian

Audio #6
ID                                       : 7
Format                                   : DTS
Format/Info                              : Digital Theater Systems
Codec ID                                 : A_DTS
Duration                                 : 3h 49mn
Bit rate mode                            : Constant
Bit rate                                 : 1 510 Kbps
Channel(s)                               : 6 channels
Channel positions                        : Front: L C R, Side: L R, LFE
Sampling rate                            : 48.0 KHz
Bit depth                                : 24 bits
Compression mode                         : Lossy
Stream size                              : 2.42 GiB (6%)
Title                                    : |Двухголосый закадровый, П.Гланц и И.Королева|
Language                                 : Russian

Audio #7
ID                                       : 8
Format                                   : AC-3
Format/Info                              : Audio Coding 3
Mode extension                           : CM (complete main)
Codec ID                                 : A_AC3
Duration                                 : 3h 49mn
Bit rate mode                            : Constant
Bit rate                                 : 640 Kbps
Channel(s)                               : 6 channels
Channel positions                        : Front: L C R, Side: L R, LFE
Sampling rate                            : 48.0 KHz
Bit depth                                : 16 bits
Compression mode                         : Lossy
Stream size                              : 1.03 GiB (2%)
Title                                    : |Одноголосый закадровый, Ю.Сербин|
Language                                 : Russian

Audio #8
ID                                       : 9
Format                                   : AC-3
Format/Info                              : Audio Coding 3
Mode extension                           : CM (complete main)
Codec ID                                 : A_AC3
Duration                                 : 3h 49mn
Bit rate mode                            : Constant
Bit rate                                 : 640 Kbps
Channel(s)                               : 6 channels
Channel positions                        : Front: L C R, Side: L R, LFE
Sampling rate                            : 48.0 KHz
Bit depth                                : 16 bits
Compression mode                         : Lossy
Stream size                              : 1.03 GiB (2%)
Title                                    : |Одноголосый закадровый, Л.Володарский|
Language                                 : Russian

Audio #9
ID                                       : 10
Format                                   : AC-3
Format/Info                              : Audio Coding 3
Mode extension                           : CM (complete main)
Codec ID                                 : A_AC3
Duration                                 : 3h 49mn
Bit rate mode                            : Constant
Bit rate                                 : 640 Kbps
Channel(s)                               : 6 channels
Channel positions                        : Front: L C R, Side: L R, LFE
Sampling rate                            : 48.0 KHz
Bit depth                                : 16 bits
Compression mode                         : Lossy
Stream size                              : 1.03 GiB (2%)
Title                                    : |Одноголосый закадровый, Ю.Живов|
Language                                 : Russian

Audio #10
ID                                       : 11
Format                                   : AC-3
Format/Info                              : Audio Coding 3
Mode extension                           : CM (complete main)
Codec ID                                 : A_AC3
Duration                                 : 3h 49mn
Bit rate mode                            : Constant
Bit rate                                 : 192 Kbps
Channel(s)                               : 2 channels
Channel positions                        : Front: L R
Sampling rate                            : 48.0 KHz
Bit depth                                : 16 bits
Compression mode                         : Lossy
Stream size                              : 315 MiB (1%)
Title                                    : |Одноголосый закадровый, А.Гаврилов (ранний перевод)|
Language                                 : Russian

Audio #11
ID                                       : 12
Format                                   : AC-3
Format/Info                              : Audio Coding 3
Mode extension                           : CM (complete main)
Codec ID                                 : A_AC3
Duration                                 : 3h 49mn
Bit rate mode                            : Constant
Bit rate                                 : 192 Kbps
Channel(s)                               : 2 channels
Channel positions                        : Front: L R
Sampling rate                            : 48.0 KHz
Bit depth                                : 16 bits
Compression mode                         : Lossy
Stream size                              : 315 MiB (1%)
Title                                    : |Одноголосый закадровый, А.Гаврилов (поздний перевод)|
Language                                 : Russian

Audio #12
ID                                       : 13
Format                                   : AC-3
Format/Info                              : Audio Coding 3
Mode extension                           : CM (complete main)
Codec ID                                 : A_AC3
Duration                                 : 3h 49mn
Bit rate mode                            : Constant
Bit rate                                 : 192 Kbps
Channel(s)                               : 2 channels
Channel positions                        : Front: L R
Sampling rate                            : 48.0 KHz
Bit depth                                : 16 bits
Compression mode                         : Lossy
Stream size                              : 315 MiB (1%)
Title                                    : |Одноголосый закадровый, А.Михалев|
Language                                 : Russian

Audio #13
ID                                       : 14
Format                                   : AC-3
Format/Info                              : Audio Coding 3
Mode extension                           : CM (complete main)
Codec ID                                 : A_AC3
Duration                                 : 3h 49mn
Bit rate mode                            : Constant
Bit rate                                 : 192 Kbps
Channel(s)                               : 2 channels
Channel positions                        : Front: L R
Sampling rate                            : 48.0 KHz
Bit depth                                : 16 bits
Compression mode                         : Lossy
Stream size                              : 315 MiB (1%)
Title                                    : |Одноголосый закадровый, В.Горчаков|
Language                                 : Russian

Audio #14
ID                                       : 15
Format                                   : AC-3
Format/Info                              : Audio Coding 3
Mode extension                           : CM (complete main)
Codec ID                                 : A_AC3
Duration                                 : 3h 49mn
Bit rate mode                            : Constant
Bit rate                                 : 192 Kbps
Channel(s)                               : 2 channels
Channel positions                        : Front: L R
Sampling rate                            : 48.0 KHz
Bit depth                                : 16 bits
Compression mode                         : Lossy
Stream size                              : 315 MiB (1%)
Title                                    : |Комментарий Ричарда Шинкеля, Ю.Сербин|
Language                                 : Russian

Audio #15
ID                                       : 16
Format                                   : DTS
Format/Info                              : Digital Theater Systems
Format profile                           : MA / Core
Codec ID                                 : A_DTS
Duration                                 : 3h 49mn
Bit rate mode                            : Variable
Bit rate                                 : 1 561 Kbps / 1 510 Kbps
Channel(s)                               : 6 channels
Channel positions                        : Front: L C R, Side: L R, LFE
Sampling rate                            : 48.0 KHz
Bit depth                                : 24 bits
Compression mode                         : Lossless / Lossy
Title                                    : DTS-HD MA 5.1, ~3410.00 kbps avg
Language                                 : English

Audio #16
ID                                       : 17
Format                                   : AC-3
Format/Info                              : Audio Coding 3
Format profile                           : Dolby Digital
Mode extension                           : CM (complete main)
Codec ID                                 : A_AC3
Duration                                 : 3h 49mn
Bit rate mode                            : Constant
Bit rate                                 : 192 Kbps
Channel(s)                               : 2 channels
Channel positions                        : Front: L R
Sampling rate                            : 48.0 KHz
Bit depth                                : 16 bits
Compression mode                         : Lossy
Stream size                              : 315 MiB (1%)
Title                                    : |Commentary by Richard Schickel|
Language                                 : English

Text #1
ID                                       : 18
Format                                   : UTF-8
Codec ID                                 : S_TEXT/UTF8
Codec ID/Info                            : UTF-8 Plain Text
Language                                 : Russian

Text #2
ID                                       : 19
Format                                   : UTF-8
Codec ID                                 : S_TEXT/UTF8
Codec ID/Info                            : UTF-8 Plain Text
Language                                 : English

1
Загрузить файл или картинкуПеретащить с помощью Drag'n'drop
Перетащите файлы
Ничего не найдено
Загрузить картинки
 
Читают тему
  • Имя

    Email

  • Телефон

    Удобное время

  • Город

  • Пожелания

Максимальное количество товаров для сравнения 50.

Для дальнейшего добавления необходимо удалить часть из уже находящихся в сравнении товаров.

Перейти на страницу сравнения